ffmpeg log: clipping without re-encoding Posted on - Format: Text



ffmpeg version N-82833-gedb4f5d Copyright (c) 2000-2016 the FFmpeg developers
  built with gcc 5.4.0 (GCC)
  configuration: --enable-gpl --enable-version3 --disable-w32threads --enable-dxva2 --enable-libmfx --enable-nvenc --enable-avisynth --enable-bzlib --enable-fontconfig --enable-frei0r --enable-gnutls --enable-iconv --enable-libass --enable-libbluray --enable-libbs2b --enable-libcaca --enable-libfreetype --enable-libgme --enable-libgsm --enable-libilbc --enable-libmodplug --enable-libmp3lame --enable-libopencore-amrnb --enable-libopencore-amrwb --enable-libopenh264 --enable-libopenjpeg --enable-libopus --enable-librtmp --enable-libschroedinger --enable-libsnappy --enable-libsoxr --enable-libspeex --enable-libtheora --enable-libtwolame --enable-libvidstab --enable-libvo-amrwbenc --enable-libvorbis --enable-libvpx --enable-libwavpack --enable-libwebp --enable-libx264 --enable-libx265 --enable-libxavs --enable-libxvid --enable-libzimg --enable-lzma --enable-decklink --enable-zlib
  libavutil      55. 43.100 / 55. 43.100
  libavcodec     57. 67.100 / 57. 67.100
  libavformat    57. 59.100 / 57. 59.100
  libavdevice    57.  2.100 / 57.  2.100
  libavfilter     6. 68.100 /  6. 68.100
  libswscale      4.  3.101 /  4.  3.101
  libswresample   2.  4.100 /  2.  4.100
  libpostproc    54.  2.100 / 54.  2.100
[theora @ 0000000000693ee0] 7 bits left in packet 82
[ogg @ 0000000000277060] Broken file, keyframe not correctly marked.
Input #0, ogg, from 'dpvideo005.ogv':
  Duration: 00:11:36.97, start: 0.000000, bitrate: 43458 kb/s
    Stream #0:0: Video: theora, yuv420p, 1920x1080 [SAR 1:1 DAR 16:9], 60 fps, 60 tbr, 60 tbn, 60 tbc
    Stream #0:1: Audio: vorbis, 48000 Hz, stereo, fltp, 111 kb/s
Output #0, ogv, to 'aeroclip.ogv':
  Metadata:
    encoder         : Lavf57.59.100
    Stream #0:0: Video: theora, yuv420p, 1920x1080 [SAR 1:1 DAR 16:9], q=2-31, 60 fps, 60 tbr, 60 tbn, 60 tbc
    Metadata:
      encoder         : Lavf57.59.100
    Stream #0:1: Audio: vorbis, 48000 Hz, stereo, fltp, 111 kb/s
    Metadata:
      encoder         : Lavf57.59.100
Stream mapping:
  Stream #0:0 -> #0:0 (copy)
  Stream #0:1 -> #0:1 (copy)
Press [q] to stop, [?] for help
[ogg @ 0000000000277060] Broken file, keyframe not correctly marked.
    Last message repeated 1 times
frame=  616 fps=0.0 q=-1.0 Lsize=   66572kB time=00:00:10.00 bitrate=54536.1kbits/s speed=28.3x    
video:66164kB audio:106kB subtitle:0kB other streams:0kB global headers:6kB muxing overhead: 0.456239%